#TITLE:UNBOUND MIND;
#SUBTITLE:;
#ARTIST:D-crew;
#TITLETRANSLIT:;
#SUBTITLETRANSLIT:;
#ARTISTTRANSLIT:;
#CREDIT:;
#BANNER:UNBOUND MIND-bn.png;
#BACKGROUND:UNBOUND MIND-bg.png;
#LYRICSPATH:;
#CDTITLE:;
#MUSIC:UNBOUND MIND.mp3;
#OFFSET:-2.980;
#SAMPLESTART:2.947;
#SAMPLELENGTH:12.000;
#SELECTABLE:YES;
#BPMS:0.000=162.000;
#STOPS:;
#BGCHANGES:;
// cache tags:
#FIRSTBEAT:0.000;
#LASTBEAT:254.000;
#SONGFILENAME:Songs/Music V.I.P ^_^/UNBOUND MIND/UNBOUND MIND.sm;
#HASMUSIC:1;
#HASBANNER:1;
#MUSICLENGTH:97.834;
// end cache tags

//---------------dance-single - ----------------
#NOTES:
     dance-single:
     :
     Hard:
     7:
     0.499,0.453,0.317,0.419,0.061,270.000,31.000,41.000,0.000,0.000:
1000
2200
0000
3300
,
0001
0202
0000
0303
,
1000
0000
0000
0100
0000
0000
0010
0000
0000
0000
0100
0000
1000
0000
0000
0000
,
0001
0000
0000
0100
0000
0000
0010
0000
0000
0000
0100
0000
0001
0000
0000
0000
,
1000
2200
0000
3300
,
0001
0202
0000
0303
,
1000
0000
0000
0100
0000
0000
0001
0000
0000
0000
0100
0000
1000
0000
0000
0000
,
0010
0000
0000
0100
0000
0000
0001
0000
0000
0000
0000
0000
0000
0000
0000
0000
,
1000
0100
0010
0100
,
1000
0010
1000
0100
,
0002
0023
2030
3200
,
0301
0000
1000
0000
0010
0100
0001
0000
,
2000
0100
0001
0010
,
3002
0100
1000
0010
,
1003
0100
0010
0001
,
0100
0000
0000
0010
0000
0000
0100
0000
0000
0000
0000
0000
0000
0000
0000
0000
,
0001
0010
0001
0000
0001
0000
0100
0000
,
1000
0010
1000
0000
1000
0000
0100
0000
,
0001
0011
0010
1010
,
1000
1100
0100
0101
,
1000
0010
1000
0000
1000
0000
0100
0000
,
0001
0010
0001
0000
0001
0000
0100
0000
,
1000
1010
0100
0011
,
1000
0000
0000
0001
0000
0000
0100
0000
0000
0000
0000
0000
0000
0000
0000
0000
,
0010
0001
0010
0000
0100
0001
0100
0000
,
0010
0001
0100
0010
0100
0001
0010
0000
,
0100
1001
0010
1001
,
0100
0001
0010
0000
0001
0100
1000
0000
,
0010
1000
0010
0000
0100
1000
0100
0000
,
0010
1000
0100
0010
0100
1000
0010
0000
,
0100
1001
0010
1001
,
0100
0000
0000
0100
0000
0000
0100
0000
0000
0000
0000
0000
0000
0000
0000
0000
,
1000
0100
1000
0000
0010
1000
0010
0000
,
0100
0001
0100
0000
0001
0010
0001
0000
,
0200
1000
0001
1000
,
0320
0001
1000
0001
,
1030
0100
0010
0000
0001
0100
0010
0000
,
1000
0001
0010
0000
0001
1000
0010
0000
,
0100
0001
0100
0010
1000
0100
0010
0100
,
1000
0000
0000
0001
0000
0000
1001
0000
0000
0000
0000
0000
0000
0000
0000
0000
,
2000
0000
0100
0000
0010
0000
3100
1000
,
0010
0000
1001
0000
0100
0001
0010
0000
,
0100
0000
1001
0000
0010
0000
0100
0001
,
1000
0000
1100
0000
0010
0100
1000
0100
,
0020
0032
0203
2300
,
3020
0030
0100
0001
,
2000
3000
0002
0003
,
0020
0000
0000
0030
,
0002
0000
0100
0000
0010
0000
0103
0001
,
0010
0000
1001
0000
0100
1000
0010
0000
,
0100
0000
1001
0000
0010
0000
0100
1000
,
0001
0000
0101
0000
0010
0100
1000
0100
,
0020
2030
3200
0302
,
0023
0000
0030
0000
0100
1000
0001
0000
,
0100
1010
0100
0011
,
2002
0000
0000
3003
,
1000
2200
0000
3300
,
0001
0202
0000
0303
,
1000
0000
0000
0100
0000
0000
0010
0000
0000
0000
0100
0000
1000
0000
0000
0000
,
0001
0000
0000
0100
0000
0000
0010
0000
0000
0000
0100
0000
0001
0000
0000
0000
,
1000
2200
0000
3300
,
0001
0202
0000
0303
,
1000
0000
0000
0100
0000
0000
0001
0000
0000
0000
0100
0000
1000
0000
0000
0000
,
1010
0000
0000
0110
0000
0000
0101
0000
0000
0000
0000
0000
0000
0000
0000
0000
;

//---------------dance-single - ----------------
#NOTES:
     dance-single:
     :
     Beginner:
     1:
     0.152,0.161,0.020,0.000,0.000,102.000,2.000,0.000,0.000,0.000:
1000
1000
0000
0000
,
0100
0100
0000
0000
,
0001
0000
0000
0000
,
0100
0000
0000
0000
,
0001
0001
0000
0000
,
0100
0100
0000
0000
,
1000
0000
0000
0000
,
0100
0000
0000
0000
,
0001
0001
0000
0000
,
0010
0010
0000
0000
,
0100
0000
0100
0000
,
1000
0000
1000
0000
,
1000
1000
0000
0000
,
0010
0010
0000
0000
,
0100
0000
0100
0000
,
0001
0000
0001
0000
,
1000
1000
0000
0000
,
0001
0001
0000
0000
,
1000
0000
0000
0000
,
0001
0000
0000
0000
,
1000
1000
0000
0000
,
0001
0001
0000
0000
,
1000
0000
0000
0000
,
0001
0000
0000
0000
,
1000
0000
0100
0000
,
0010
0000
0001
0000
,
0010
0000
0000
0000
,
0100
0000
0000
0000
,
0001
0000
0000
0000
,
0010
0000
0100
0000
,
1000
0000
0001
0000
,
0100
0000
0000
0000
,
0001
0000
0010
0000
,
0100
0000
1000
0000
,
0100
0000
0000
0000
,
0010
0000
0000
0000
,
1000
0000
0000
0000
,
0100
0000
0010
0000
,
0001
0000
1000
0000
,
0010
0000
0000
0000
,
1001
0000
0000
0000
,
1000
0000
0100
0000
,
1000
0000
0000
0000
,
1000
0000
0001
0000
,
0100
0000
0010
0000
,
1000
0000
0001
0000
,
0010
0000
0010
0000
,
0010
0000
0000
0000
,
1001
0000
0000
0000
,
0001
0000
0100
0000
,
0001
0000
0000
0000
,
0001
0000
1000
0000
,
0100
0000
0010
0000
,
0001
0000
1000
0000
,
0010
0000
0010
0000
,
0010
0000
0000
0000
,
1000
1000
0000
0000
,
0100
0100
0000
0000
,
0001
0000
0000
0000
,
0100
0000
0000
0000
,
0001
0001
0000
0000
,
0100
0100
0000
0000
,
1000
0000
0000
0000
,
0100
0000
0000
0000
;

//---------------dance-single - ----------------
#NOTES:
     dance-single:
     :
     Medium:
     6:
     0.409,0.421,0.061,0.184,0.020,256.000,6.000,18.000,0.000,0.000:
1000
0000
0010
0100
0000
0000
0001
0000
,
1000
0000
0100
0010
0000
0000
0001
0000
,
1000
0010
0100
0001
,
1000
0100
0001
0010
,
0001
0000
0100
0010
0000
0000
1000
0000
,
0001
0000
0010
0100
0000
0000
1000
0000
,
0001
0100
0010
1000
,
0001
0000
0000
0010
0000
0000
0100
0000
0000
0000
0000
0000
0000
0000
0000
0000
,
0010
0000
0010
0000
0100
1000
0100
0000
,
0010
0000
0010
0000
0100
0001
0100
0000
,
0010
1000
0100
0001
,
0010
0001
0100
1000
,
0010
0000
0010
0000
0100
0001
0100
0000
,
0010
0000
0010
0000
0100
1000
0100
0000
,
0010
0001
0100
1000
,
0010
0000
0000
0100
0000
0000
0001
0000
0000
0000
0000
0000
0000
0000
0000
0000
,
1000
0000
0001
0000
0100
0010
0100
0000
,
0001
0000
1000
0000
0100
0010
0100
0000
,
1000
0010
0001
0100
,
0001
0010
1000
0100
,
1000
0000
0010
0000
0100
0001
0100
0000
,
0001
0000
0010
0000
0100
1000
0100
0000
,
1000
0010
0001
0100
,
1000
0000
0000
0001
0000
0000
0100
0000
0000
0000
0000
0000
0000
0000
0000
0000
,
0100
0000
0100
0000
0001
1000
0000
0000
,
0010
0000
0010
0000
0001
1000
0000
0000
,
0001
0000
0010
0000
0001
0010
0001
0000
,
0100
0000
1000
0000
0100
1000
0100
0000
,
1000
0010
0100
0001
,
1000
0100
0010
0001
,
0200
1300
0200
0301
,
0020
0000
0000
1030
0000
0000
0000
0000
,
0010
0000
0010
0000
1000
0001
0000
0000
,
0100
0000
0100
0000
1000
0001
0000
0000
,
1000
0000
0100
0000
1000
0100
1000
0000
,
0010
0000
0001
0000
0010
0001
0010
0000
,
0001
0100
0010
1000
,
0001
0010
0100
1000
,
0020
0031
0020
1030
,
0200
0000
0000
0301
0000
0000
0000
0000
,
1000
0100
1000
0000
0001
0100
0001
0000
,
0010
0100
1000
0001
,
1000
0100
0010
0001
,
0100
0000
0010
0000
0100
0001
0100
0000
,
0010
1000
0100
0100
,
0010
0001
0100
0100
,
0022
0033
2002
3003
,
2020
0000
3030
0000
,
0001
0100
0001
0000
1000
0100
1000
0000
,
0010
0100
0001
1000
,
0001
0100
0010
1000
,
0100
0000
0010
0000
0100
1000
0100
0000
,
0010
0001
0100
0100
,
0010
1000
0100
0100
,
2020
3030
2002
3003
,
0022
0000
0000
0033
,
1000
0000
0010
0100
0000
0000
0001
0000
,
1000
0000
0100
0010
0000
0000
0001
0000
,
1000
0010
0100
0001
,
1000
0100
0001
0010
,
0001
0000
0100
0010
0000
0000
1000
0000
,
0001
0000
0010
0100
0000
0000
1000
0000
,
0001
0100
0010
1000
,
0001
0000
0000
0010
0000
0000
0100
0000
0000
0000
0000
0000
0000
0000
0000
0000
;

//---------------dance-single - ----------------
#NOTES:
     dance-single:
     :
     Easy:
     3:
     0.245,0.227,0.031,0.194,0.000,146.000,3.000,19.000,0.000,0.000:
1000
0200
0000
0300
,
1000
0002
0000
0003
,
0010
0100
1000
0000
,
0001
1000
0100
0000
,
0001
0200
0000
0300
,
0001
2000
0000
3000
,
0010
0100
0001
0000
,
1000
0100
0000
0010
,
0010
0000
0000
0001
,
0001
0000
0000
0100
,
0020
0000
0000
0030
,
2000
0000
3000
0001
,
0001
0000
0000
0010
,
0010
0000
0000
1000
,
0020
0000
0000
0000
,
0000
0000
0030
1000
,
0001
0000
0000
0001
,
0010
0000
0000
0010
,
0200
0000
0000
0300
,
2000
0000
3000
0001
,
1000
0000
0000
1000
,
0010
0000
0000
0010
,
0200
0000
0000
0000
,
0000
0000
0300
0000
,
0001
0010
0001
0000
,
0100
1000
0100
0000
,
0001
0010
0100
0000
,
1000
0010
1000
0000
,
1000
0100
1000
0000
,
0010
0001
0010
0000
,
1000
0100
0010
0000
,
0001
0100
0001
0000
,
1000
0000
0100
0000
,
0010
1000
0010
0100
,
0001
0000
0010
0000
,
0100
0001
0100
0010
,
1000
0100
0010
0000
,
0001
0100
0010
0000
,
0200
0000
0000
0000
,
0000
0300
0000
0000
,
0010
0001
0100
0000
,
0010
1000
0100
0000
,
1000
0000
0001
0000
,
1000
0100
0010
0000
,
0001
0000
1000
0000
,
0010
0100
0001
0000
,
1000
0000
0001
0000
,
2002
0000
3003
0000
,
0010
1000
0100
0000
,
0010
0001
0100
0000
,
0001
0000
1000
0000
,
0001
0100
0010
0000
,
1000
0000
0001
0000
,
0010
0100
1000
0000
,
0001
0000
1000
0000
,
2002
0000
0000
3003
,
0001
0200
0000
0300
,
0001
2000
0000
3000
,
0010
0100
0001
0000
,
1000
0001
0100
0000
,
1000
0200
0000
0300
,
1000
0002
0000
0003
,
0010
0100
1000
0000
,
0001
0100
1001
0000
;
